viewing paste Unknown #51568 | Text

Posted on the
1 2 3 4 5 6 7 8 9 10 11 12 13 14 15 16 17 18 19 20 21 22 23 24 25 26 27 28 29 30 31 32 33 34
foobar2000 1.3.17 / Dynamic Range Meter 1.1.1
log date: 2020-04-11 00:53:54
 
--------------------------------------------------------------------------------
Analyzed: Dominic Lewis / The Man In The High Castle (Digital Download)
--------------------------------------------------------------------------------
 
DR         Peak         RMS     Duration Track
--------------------------------------------------------------------------------
DR13      -0.22 dB   -20.19 dB      4:09 01-Gewahrsam
DR13      -1.23 dB   -20.81 dB      2:01 02-Remember The Fallen
DR11      -0.21 dB   -18.69 dB      1:50 03-Grenze
DR11      -0.21 dB   -15.20 dB      4:48 04-BCR
DR12      -0.21 dB   -18.13 dB      3:35 05-Ghost Of John Smith's Past
DR12      -0.23 dB   -18.52 dB      1:53 06-Bell's Bombs
DR12      -0.21 dB   -17.31 dB      2:40 07-Under New Management
DR9       -0.21 dB   -12.78 dB      2:43 08-Panic At The Plaza
DR11      -0.21 dB   -16.85 dB      3:06 09-Kanashimi
DR10      -0.21 dB   -15.80 dB      4:15 10-Machtwechsel
DR9       -0.21 dB   -11.76 dB      2:56 11-San Francisco Spared
DR8       -0.21 dB   -12.78 dB      1:53 12-The Door Is Open
--------------------------------------------------------------------------------
 
Number of tracks:  12
Official DR value: DR11
 
Samplerate:        48000 Hz
Channels:          2
Bits per sample:   24
Bitrate:           1462 kbps
Codec:             FLAC
================================================================================
 
 
Viewed 188 times, submitted by meddle.