viewing paste Unknown #26056 | Text

Posted on the
1 2 3 4 5 6 7 8 9 10 11 12 13 14 15 16 17 18 19 20 21 22 23 24 25 26 27 28 29 30
foobar2000 1.3.6 / Dynamic Range Meter 1.1.1
log date: 2014-12-26 01:02:10
 
--------------------------------------------------------------------------------
Analyzed: Led Zeppelin / Led Zeppelin IV (Deluxe Edition) (Disc 2 - Unreleased Studio Outtakes)
--------------------------------------------------------------------------------
 
DR         Peak         RMS     Duration Track
--------------------------------------------------------------------------------
DR10      -0.25 dB   -13.14 dB      4:36 01-Black Dog (Basic Track With Guitar Overdubs)
DR9       -0.27 dB   -10.61 dB      3:40 02-Rock And Roll (Alternate Mix)
DR11      -1.21 dB   -14.74 dB      4:13 03-The Battle Of Evermore (Mandolin/Guitar Mix From Headley Grange)
DR11      -0.27 dB   -16.73 dB      8:04 04-Stairway To Heaven (Sunset Sound Mix)
DR9       -0.16 dB   -10.82 dB      4:45 05-Misty Mountain Hop (Alternate Mix)
DR9       -0.18 dB   -10.59 dB      4:33 06-Four Sticks (Alternate Mix)
DR10      -3.04 dB   -16.83 dB      3:34 07-Going To Calfornia (Mandolin/Guitar Mix)
DR7       -0.29 dB    -9.59 dB      7:11 08-When The Levee Breaks (Alternate U.K. Mix)
--------------------------------------------------------------------------------
 
Number of tracks:  8
Official DR value: DR9
 
Samplerate:        44100 Hz
Channels:          2
Bits per sample:   16
Bitrate:           924 kbps
Codec:             FLAC
================================================================================
 
 
Viewed 534 times, submitted by unknown.