viewing paste movie_8 | Text

Posted on the
1 2 3 4 5 6 7 8 9 10 11 12 13 14 15 16 17 18 19 20 21 22 23 24 25 26 27 28 29 30 31 32 33 34 35 36 37 38 39
General
Complete name                  : C:\Users\Sam\Videos\Encode\movie_8.avi
Format                         : AVI
Format/Info                    : Audio Video Interleave
File size                      : 382 MiB
Duration                       : 4mn 56s
Overall bit rate               : 10.8 Mbps
 
Video
ID                             : 0
Format                         : Lagarith
Codec ID                       : LAGS
Duration                       : 4mn 56s
Bit rate                       : 9 362 Kbps
Width                          : 378 pixels
Height                         : 240 pixels
Display aspect ratio           : 16:10
Frame rate                     : 59.293 fps
Color space                    : RGB
Bit depth                      : 8 bits
Bits/(Pixel*Frame)             : 1.741
Stream size                    : 331 MiB (87%)
 
Audio
ID                             : 1
Format                         : PCM
Format settings, Endianness    : Little
Format settings, Sign          : Signed
Codec ID                       : 1
Duration                       : 4mn 56s
Bit rate mode                  : Constant
Bit rate                       : 1 411.2 Kbps
Channel(s)                     : 2 channels
Sampling rate                  : 44.1 KHz
Bit depth                      : 16 bits
Stream size                    : 49.9 MiB (13%)
Alignment                      : Aligned on interleaves
Interleave, duration           : 999 ms (59.26 video frames)
 
Viewed 326 times, submitted by unknown.