viewing paste Unknown #51565 | Text

Posted on the
1 2 3 4 5 6 7 8 9 10 11 12 13 14 15 16 17 18 19 20 21 22 23 24 25 26 27 28 29 30 31 32 33 34 35 36 37 38 39 40 41 42 43 44 45 46 47 48 49 50 51 52 53 54 55 56 57 58 59 60 61 62 63 64 65 66 67 68 69 70 71 72 73 74 75 76 77 78 79 80 81 82 83 84 85
foobar2000 1.3.14 / Dynamic Range Meter 1.1.1
log date: 2017-02-16 15:18:06
 
--------------------------------------------------------------------------------
Analyzed: The Allman Brothers Band / The Allman Brothers Band (CD Layer)
--------------------------------------------------------------------------------
 
DR         Peak         RMS     Duration Track
--------------------------------------------------------------------------------
DR9       -1.06 dB   -12.24 dB      2:25 01-Don't Want You No More
DR10      -1.03 dB   -14.88 dB      5:04 02-It's Not My Cross To Bear
DR10      -1.03 dB   -12.93 dB      5:11 03-Black Hearted Woman
DR10      -0.97 dB   -12.83 dB      3:50 04-Trouble No More
DR10      -0.27 dB   -12.73 dB      4:16 05-Every Hungry Woman
DR9       -1.22 dB   -13.32 dB      7:20 06-Dreams
DR10      -0.73 dB   -13.65 dB      5:20 07-Whipping Post
--------------------------------------------------------------------------------
 
Number of tracks:  7
Official DR value: DR10
 
Samplerate:        44100 Hz
Channels:          2
Bits per sample:   16
Bitrate:           864 kbps
Codec:             FLAC
================================================================================
 
foobar2000 1.3.14 / Dynamic Range Meter 1.1.1
log date: 2017-02-16 15:19:37
 
--------------------------------------------------------------------------------
Analyzed: The Allman Brothers Band / The Allman Brothers Band (HD Layer)
--------------------------------------------------------------------------------
 
DR         Peak         RMS     Duration Track
--------------------------------------------------------------------------------
DR9       -7.03 dB   -18.36 dB      2:26 01-Don't Want You No More
DR10      -7.09 dB   -20.90 dB      5:04 02-It's Not My Cross To Bear
DR10      -6.99 dB   -18.94 dB      5:11 03-Black Hearted Woman
DR10      -6.97 dB   -18.85 dB      3:50 04-Trouble No More
DR10      -6.27 dB   -18.75 dB      4:16 05-Every Hungry Woman
DR9       -7.25 dB   -19.34 dB      7:20 06-Dreams
DR10      -6.76 dB   -19.63 dB      5:18 07-Whipping Post
--------------------------------------------------------------------------------
 
Number of tracks:  7
Official DR value: DR10
 
Samplerate:        2822400 Hz / PCM Samplerate: 88200 Hz
Channels:          2
Bits per sample:   1
Bitrate:           5645 kbps
Codec:             DSD64
================================================================================
 
foobar2000 1.3.17 / Dynamic Range Meter 1.1.1
log date: 2020-04-09 18:52:44
 
--------------------------------------------------------------------------------
Analyzed: The Allman Brothers Band / The Allman Brothers Band (DSD to PCM)
--------------------------------------------------------------------------------
 
DR         Peak         RMS     Duration Track
--------------------------------------------------------------------------------
DR9       -1.03 dB   -12.29 dB      2:26 01-Don't Want You No More
DR10      -1.09 dB   -14.90 dB      5:04 02-It's Not My Cross To Bear
DR10      -0.99 dB   -12.94 dB      5:11 03-Black Hearted Woman
DR10      -0.97 dB   -12.85 dB      3:50 04-Trouble No More
DR10      -0.26 dB   -12.75 dB      4:16 05-Every Hungry Woman
DR9       -1.26 dB   -13.34 dB      7:20 06-Dreams
DR10      -0.76 dB   -13.63 dB      5:18 07-Whipping Post
--------------------------------------------------------------------------------
 
Number of tracks:  7
Official DR value: DR10
 
Samplerate:        88200 Hz
Channels:          2
Bits per sample:   24
Bitrate:           2810 kbps
Codec:             FLAC
================================================================================
 
 
Viewed 284 times, submitted by meddle.