viewing paste Unknown #51578 | Text

Posted on the
1 2 3 4 5 6 7 8 9 10 11 12 13 14 15 16 17 18 19 20 21 22 23 24 25 26 27 28 29 30 31 32 33 34 35 36 37 38 39 40 41 42 43 44 45 46 47 48 49 50 51 52 53 54 55 56 57 58 59 60 61
foobar2000 1.3.15 / Dynamic Range Meter 1.1.1
log date: 2017-05-29 20:45:46
 
--------------------------------------------------------------------------------
Analyzed: Anathema / Weather Systems (Digital Download, 5.1)
--------------------------------------------------------------------------------
 
DR         Peak         RMS     Duration Track
--------------------------------------------------------------------------------
DR10      -0.04 dB   -13.44 dB      6:14 01-Untouchable Part 1
DR11      -0.03 dB   -16.38 dB      5:33 02-Untouchable Part 2
DR11      -0.04 dB   -14.67 dB      3:28 03-The Gathering Of The Clouds
DR11      -0.04 dB   -17.88 dB      5:25 04-Lightning Song
DR11      -0.04 dB   -15.68 dB      4:55 05-Sunlight
DR9       -0.01 dB   -13.37 dB      9:23 06-The Storm Before The Calm
DR10      -0.02 dB   -13.67 dB      4:53 07-The Beginning And The End
DR11      -0.05 dB   -18.23 dB      7:02 08-The Lost Child
DR12      -0.02 dB   -17.46 dB      8:53 09-Internal Landscapes
--------------------------------------------------------------------------------
 
Number of tracks:  9
Official DR value: DR11
 
Samplerate:        48000 Hz
Channels:          6
Bits per sample:   24
Bitrate:           3612 kbps
Codec:             FLAC
================================================================================
 
foobar2000 1.3.17 / Dynamic Range Meter 1.1.1
log date: 2020-04-11 18:54:37
 
--------------------------------------------------------------------------------
Analyzed: Anathema / Weather Systems (Digital Download, Downmix)
--------------------------------------------------------------------------------
 
DR         Peak         RMS     Duration Track
--------------------------------------------------------------------------------
DR11      -0.41 dB   -14.17 dB      6:14 01-Untouchable Part 1
DR13      -0.34 dB   -17.78 dB      5:33 02-Untouchable Part 2
DR12      -1.28 dB   -15.43 dB      3:28 03-The Gathering Of The Clouds
DR13      -0.29 dB   -18.19 dB      5:25 04-Lightning Song
DR12      -0.16 dB   -16.27 dB      4:55 05-Sunlight
DR9       -0.12 dB   -13.37 dB      9:23 06-The Storm Before The Calm
DR11      -0.84 dB   -14.52 dB      4:53 07-The Beginning And The End
DR12      -0.18 dB   -19.12 dB      7:02 08-The Lost Child
DR13      -0.50 dB   -18.75 dB      8:53 09-Internal Landscapes
--------------------------------------------------------------------------------
 
Number of tracks:  9
Official DR value: DR12
 
Samplerate:        48000 Hz
Channels:          2
Bits per sample:   24
Bitrate:           1261 kbps
Codec:             FLAC
================================================================================
 
 
Viewed 277 times, submitted by meddle.